+ ShareSpark.net »  :::: Dubbed Zone (Dubbed English in Hindi) » English Movies Dubbed in Hindi » High Resolution Movies
|- The Usual Suspects (1995) 1080p Bluray x264 Dual Audio [Hindi DD2.0 - English DD5.1] - ESUB ~Ranvija


Mastercard 10% Off

The Usual Suspects (1995) 1080p Bluray x264 Dual Audio [Hindi DD2.0 - English DD5.1] - ESUB ~Ranvija

0 Members and 1 Guest are viewing this topic.

January 09, 2019, 11:29:11 PM
  • Global Moderator
  • Legend Member
  • *****
  • Topic Author
  • Thank You: 11935
  • Reputation: 2432
  • Activity:
    100%
  • Country: in
  • Posts: 5649
  • Topics: 4628
  • Join Date: Jan 2014
  • ıllıllı ѕмoĸιng ιѕ good ғor нealтн ıllıllı :)






The Usual Suspects (1995) 1080p Bluray x264 Dual Audio [Hindi DD2.0 - English DD5.1] - ESUB ~Ranvijay

Thanks To Hammer For Hindi Audio

Buy RDP Online




Quote

Format                                   : Matroska
Format version                           : Version 4 / Version 2
File size                                : 4.21 GiB
Duration                                 : 1 h 46 min
Overall bit rate                         : 5 682 kb/s
Movie name                               : The Usual Suspects (1995) 1080p Bluray x264 Dual Audio [Hindi DD2.0 - English DD5.1] - ESUB ~Ranvijay

Video
ID                                       : 1
Format                                   : AVC
Format/Info                              : Advanced Video Codec
Format profile                           : [email protected]
Duration                                 : 1 h 46 min
Bit rate                                 : 5 000 kb/s
Width                                    : 1 920 pixels
Height                                   : 816 pixels
Display aspect ratio                     : 2.35:1
Frame rate mode                          : Constant
Frame rate                               : 23.976 (24000/1001) FPS
Color space                              : YUV
Chroma subsampling                       : 4:2:0
Bit depth                                : 8 bits
Scan type                                : Progressive
Bits/(Pixel*Frame)                       : 0.133
Stream size                              : 3.70 GiB (88%)
Title                                    : ~Ranvijay~

Audio #1
ID                                       : 2
Format                                   : AC-3
Format/Info                              : Audio Coding 3
Codec ID                                 : A_AC3
Duration                                 : 1 h 46 min
Bit rate mode                            : Constant
Bit rate                                 : 224 kb/s
Channel(s)                               : 2 channels
Channel positions                        : Front: L R
Sampling rate                            : 48.0 kHz
Frame rate                               : 31.250 FPS (1536 SPF)
Bit depth                                : 16 bits
Compression mode                         : Lossy
Delay relative to video                  : 1 s 30 ms
Stream size                              : 170 MiB (4%)
Title                                    : ~Ranvijay~
Language                                 : Hindi
Service kind                             : Complete Main
Default                                  : Yes
Forced                                   : Yes

Audio #2
ID                                       : 3
Format                                   : AC-3
Format/Info                              : Audio Coding 3
Codec ID                                 : A_AC3
Duration                                 : 1 h 46 min
Bit rate mode                            : Constant
Bit rate                                 : 448 kb/s
Channel(s)                               : 6 channels
Channel positions                        : Front: L C R, Side: L R, LFE
Sampling rate                            : 48.0 kHz
Frame rate                               : 31.250 FPS (1536 SPF)
Bit depth                                : 16 bits
Compression mode                         : Lossy
Stream size                              : 340 MiB (8%)
Title                                    : ~Ranvijay~
Language                                 : English
Service kind                             : Complete Main
Default                                  : No
Forced                                   : No

Text
ID                                       : 4
Format                                   : PGS
Muxing mode                              : zlib
Codec ID                                 : S_HDMV/PGS
Codec ID/Info                            : Picture based subtitle format used on BDs/HD-DVDs
Duration                                 : 1 h 38 min
Bit rate                                 : 49.3 kb/s
Count of elements                        : 2945
Stream size                              : 34.9 MiB (1%)
Title                                    : ~Ranvijay~
Language                                 : English
Default                                  : Yes
Forced                                   : Yes

Menu
00:00:00.000                             : en:00:00:00.000
00:02:17.846                             : en:00:02:17.846
00:05:11.811                             : en:00:05:11.811
00:08:03.108                             : en:00:08:03.108
00:12:07.060                             : en:00:12:07.060
00:16:57.099                             : en:00:16:57.099
00:18:01.163                             : en:00:18:01.163
00:20:21.554                             : en:00:20:21.554
00:21:57.650                             : en:00:21:57.650
00:26:04.980                             : en:00:26:04.980
00:28:28.999                             : en:00:28:28.999
00:31:22.047                             : en:00:31:22.047
00:34:49.546                             : en:00:34:49.546
00:37:30.331                             : en:00:37:30.331
00:39:39.961                             : en:00:39:39.961
00:41:29.445                             : en:00:41:29.445
00:43:09.712                             : en:00:43:09.712
00:46:18.025                             : en:00:46:18.025
00:50:42.665                             : en:00:50:42.665
00:51:59.366                             : en:00:51:59.366
00:57:04.796                             : en:00:57:04.796
00:59:16.762                             : en:00:59:16.762
01:04:48.218                             : en:01:04:48.218
01:07:11.361                             : en:01:07:11.361
01:13:12.722                             : en:01:13:12.722
01:14:22.667                             : en:01:14:22.667
01:22:36.660                             : en:01:22:36.660
01:23:42.809                             : en:01:23:42.809
01:28:46.238                             : en:01:28:46.238
01:32:44.684                             : en:01:32:44.684
01:38:01.250                             : en:01:38:01.250
01:42:45.409                             : en:01:42:45.409
















:download:

Quote



Are u Facing 404 Eroor From Acefile Link???
Don't Worry Just Install Any VPN and Set Location To Singapore.

Link Will Work Perfectly.
  :thank:

File Leeched & Uploaded From




Don't walk as you are king, walk as you don't care who the king is....!!
Never argue with an idiot. They drag you down to their level and then beat you with experience?

Share this topic on FacebookShare this topic on GoogleShare this topic on MySpaceShare this topic on TwitterShare this topic on Yahoo

« Last Edit: January 10, 2019, 11:24:16 AM by Rάήνίјάч1234 »



Don't walk as you are king, walk as you don't care who the king is....!!

Thanks given by:


Tags:
 

Related Topics





Back to top