+ ShareSpark.net »  :::: Dubbed Zone (Dubbed English in Hindi) » English Movies Dubbed in Hindi » High Resolution Movies
|- Split (2016) 1080p BluRay x264 Dual Audio [Hindi DD5.1 - English DD5.1] - MSUBS ~ Ranvijay


Electroncs Sale

Split (2016) 1080p BluRay x264 Dual Audio [Hindi DD5.1 - English DD5.1] - MSUBS ~ Ranvijay

0 Members and 1 Guest are viewing this topic.

January 06, 2019, 09:48:03 PM
  • Global Moderator
  • Legend Member
  • *****
  • Topic Author
  • Thank You: 11935
  • Reputation: 2432
  • Activity:
    100%
  • Country: in
  • Posts: 5649
  • Topics: 4628
  • Join Date: Jan 2014
  • ıllıllı ѕмoĸιng ιѕ good ғor нealтн ıllıllı :)






Split (2016) 1080p BluRay x264 Dual Audio [Hindi DD5.1 - English DD5.1] - MSUBS ~ Ranvijay

Thanks To Hammer For Hindi Audio

Buy RDP Online




Quote

Format                                   : Matroska
Format version                           : Version 4 / Version 2
File size                                : 4.59 GiB
Duration                                 : 1 h 57 min
Overall bit rate                         : 5 601 kb/s
Movie name                               : Split (2016) 1080p BluRay x264 Dual Audio [Hindi DD5.1 - English DD5.1] - MSUBS ~ Ranvijay

Video
ID                                       : 1
Format                                   : AVC
Format/Info                              : Advanced Video Codec
Duration                                 : 1 h 57 min
Bit rate                                 : 4 500 kb/s
Width                                    : 1 920 pixels
Height                                   : 800 pixels
Display aspect ratio                     : 2.40:1
Frame rate mode                          : Constant
Frame rate                               : 23.976 (24000/1001) FPS
Color space                              : YUV
Chroma subsampling                       : 4:2:0
Bit depth                                : 8 bits
Scan type                                : Progressive
Bits/(Pixel*Frame)                       : 0.122
Stream size                              : 3.68 GiB (80%)
Title                                    : ~Ranvijay~

Audio #1
ID                                       : 2
Format                                   : AC-3
Format/Info                              : Audio Coding 3
Codec ID                                 : A_AC3
Duration                                 : 1 h 57 min
Bit rate mode                            : Constant
Bit rate                                 : 640 kb/s
Channel(s)                               : 6 channels
Channel positions                        : Front: L C R, Side: L R, LFE
Sampling rate                            : 48.0 kHz
Frame rate                               : 31.250 FPS (1536 SPF)
Bit depth                                : 16 bits
Compression mode                         : Lossy
Stream size                              : 537 MiB (11%)
Title                                    : ~Ranvijay~
Language                                 : Hindi
Service kind                             : Complete Main
Default                                  : Yes
Forced                                   : Yes

Audio #2
ID                                       : 3
Format                                   : AC-3
Format/Info                              : Audio Coding 3
Codec ID                                 : A_AC3
Duration                                 : 1 h 57 min
Bit rate mode                            : Constant
Bit rate                                 : 448 kb/s
Channel(s)                               : 6 channels
Channel positions                        : Front: L C R, Side: L R, LFE
Sampling rate                            : 48.0 kHz
Frame rate                               : 31.250 FPS (1536 SPF)
Bit depth                                : 16 bits
Compression mode                         : Lossy
Stream size                              : 375 MiB (8%)
Title                                    : ~Ranvijay~
Language                                 : English
Service kind                             : Complete Main
Default                                  : No
Forced                                   : No

Text #1
ID                                       : 4
Format                                   : PGS
Muxing mode                              : zlib
Codec ID                                 : S_HDMV/PGS
Codec ID/Info                            : Picture based subtitle format used on BDs/HD-DVDs
Duration                                 : 1 h 51 min
Bit rate                                 : 33.6 kb/s
Count of elements                        : 2882
Stream size                              : 26.8 MiB (1%)
Title                                    : ~Ranvijay~
Language                                 : English
Default                                  : Yes
Forced                                   : Yes

Text #2
ID                                       : 5
Format                                   : PGS
Muxing mode                              : zlib
Codec ID                                 : S_HDMV/PGS
Codec ID/Info                            : Picture based subtitle format used on BDs/HD-DVDs
Duration                                 : 1 h 56 min
Bit rate                                 : 22.1 kb/s
Count of elements                        : 2470
Stream size                              : 18.3 MiB (0%)
Title                                    : ~Ranvijay~
Language                                 : Hindi
Default                                  : No
Forced                                   : No

Menu
00:00:00.000                             : en:Chapter 1
00:06:08.451                             : en:Chapter 2
00:14:19.024                             : en:Chapter 3
00:20:49.373                             : en:Chapter 4
00:24:14.536                             : en:Chapter 5
00:28:37.048                             : en:Chapter 6
00:35:47.979                             : en:Chapter 7
00:42:35.386                             : en:Chapter 8
00:49:06.068                             : en:Chapter 9
00:54:09.412                             : en:Chapter 10
01:00:24.495                             : en:Chapter 11
01:06:22.561                             : en:Chapter 12
01:12:31.221                             : en:Chapter 13
01:19:35.771                             : en:Chapter 14
01:25:25.829                             : en:Chapter 15
01:29:16.559                             : en:Chapter 16
01:34:08.225                             : en:Chapter 17
01:40:45.998                             : en:Chapter 18
01:47:40.287                             : en:Chapter 19
01:52:26.740                             : en:Chapter 20














:download:

Quote








File Leeched & Uploaded From




Don't walk as you are king, walk as you don't care who the king is....!!
Never argue with an idiot. They drag you down to their level and then beat you with experience?

Share this topic on FacebookShare this topic on GoogleShare this topic on MySpaceShare this topic on TwitterShare this topic on Yahoo

« Last Edit: January 06, 2019, 09:54:49 PM by Rάήνίјάч1234 »



Don't walk as you are king, walk as you don't care who the king is....!!

Thanks given by:


January 06, 2019, 09:48:57 PM
Reply #1
  • Elite Member
  • ***
  • Thank You: 0
  • Reputation: 0
  • Activity:
    3.2%
  • Posts: 469
  • Topics: 0
  • Join Date: Jul 2012
  • ShareSpark Member

January 06, 2019, 09:52:44 PM
Reply #2
  • Global Moderator
  • Legend Member
  • *****
  • Topic Author
  • Thank You: 11935
  • Reputation: 2432
  • Activity:
    100%
  • Country: in
  • Posts: 5649
  • Topics: 4628
  • Join Date: Jan 2014
  • ıllıllı ѕмoĸιng ιѕ good ғor нealтн ıllıllı :)

Don't walk as you are king, walk as you don't care who the king is....!!

January 07, 2019, 03:27:40 PM
Reply #3
  • Royal Member
  • ****
  • Thank You: 1
  • Reputation: 5
  • Activity:
    9.4%
  • Country: in
  • Posts: 951
  • Topics: 0
  • Join Date: May 2012
  • ShareSpark Member

January 07, 2019, 04:16:26 PM
Reply #4
  • Senior Member
  • ***
  • Thank You: 4
  • Reputation: 1
  • Activity:
    27.2%
  • Country: pk
  • Posts: 291
  • Topics: 7
  • Join Date: Mar 2013
  • ShareSpark Member

Tags:
 

Related Topics





Back to top