+ ShareSpark.net »  :::: Dubbed Zone (Dubbed English in Hindi) » English Movies Dubbed in Hindi » High Resolution Movies
|- Extraordinary Mission (2017) 1080p BluRay x264 Dual Audio [Hindi - Chinese] DD2.0 - ESUB ~ Ranvijay


Samsung Galaxy 8

Extraordinary Mission (2017) 1080p BluRay x264 Dual Audio [Hindi - Chinese] DD2.0 - ESUB ~ Ranvijay

0 Members and 1 Guest are viewing this topic.

January 02, 2019, 09:23:19 PM
  • Global Moderator
  • Legend Member
  • *****
  • Topic Author
  • Thank You: 11935
  • Reputation: 2432
  • Activity:
    100%
  • Country: in
  • Posts: 5649
  • Topics: 4628
  • Join Date: Jan 2014
  • ıllıllı ѕмoĸιng ιѕ good ғor нealтн ıllıllı :)




Extraordinary Mission (2017) 1080p BluRay x264 Dual Audio [Hindi - Chinese] DD2.0 - ESUB ~ Ranvijay

Thanks To Dr. Star For Hindi Audio

Buy RDP Online




Quote

Format                                   : Matroska
Format version                           : Version 4 / Version 2
File size                                : 3.66 GiB
Duration                                 : 2 h 1 min
Overall bit rate                         : 4 315 kb/s
Movie name                               : Extraordinary Mission (2017) 1080p BluRay x264 Dual Audio [Hindi - Chinese] DD2.0 - ESUB ~ Ranvijay

Video
ID                                       : 1
Format                                   : AVC
Format/Info                              : Advanced Video Codec
Format profile                           : [email protected]
Duration                                 : 2 h 1 min
Bit rate                                 : 4 000 kb/s
Width                                    : 1 920 pixels
Height                                   : 800 pixels
Display aspect ratio                     : 2.40:1
Frame rate mode                          : Constant
Frame rate                               : 24.000 FPS
Color space                              : YUV
Chroma subsampling                       : 4:2:0
Bit depth                                : 8 bits
Scan type                                : Progressive
Bits/(Pixel*Frame)                       : 0.109
Stream size                              : 3.39 GiB (93%)
Title                                    : ~Ranvijay~

Audio #1
ID                                       : 2
Format                                   : AC-3
Format/Info                              : Audio Coding 3
Codec ID                                 : A_AC3
Duration                                 : 2 h 1 min
Bit rate mode                            : Constant
Bit rate                                 : 224 kb/s
Channel(s)                               : 2 channels
Channel positions                        : Front: L R
Sampling rate                            : 48.0 kHz
Frame rate                               : 31.250 FPS (1536 SPF)
Bit depth                                : 16 bits
Compression mode                         : Lossy
Stream size                              : 195 MiB (5%)
Title                                    : ~Ranvijay~
Language                                 : Hindi
Service kind                             : Complete Main
Default                                  : Yes
Forced                                   : Yes

Audio #2
ID                                       : 3
Format                                   : AAC
Format/Info                              : Advanced Audio Codec
Format profile                           : LC
Codec ID                                 : A_AAC-2
Duration                                 : 2 h 1 min
Bit rate                                 : 87.3 kb/s
Channel(s)                               : 2 channels
Channel positions                        : Front: L R
Sampling rate                            : 48.0 kHz
Frame rate                               : 46.875 FPS (1024 SPF)
Compression mode                         : Lossy
Delay relative to video                  : 9 ms
Stream size                              : 75.8 MiB (2%)
Title                                    : ~Ranvijay~
Language                                 : Chinese
Default                                  : No
Forced                                   : No

Text
ID                                       : 4
Format                                   : VobSub
Muxing mode                              : zlib
Codec ID                                 : S_VOBSUB
Codec ID/Info                            : Picture based subtitle format used on DVDs
Duration                                 : 1 h 53 min
Bit rate                                 : 4 660 b/s
Count of elements                        : 897
Stream size                              : 3.80 MiB (0%)
Title                                    : ~Ranvijay~
Language                                 : English
Default                                  : Yes
Forced                                   : Yes

Menu
00:00:00.000                             : en:00:00:00.000
00:07:57.125                             : en:00:07:57.125
00:11:52.375                             : en:00:11:52.375
00:15:57.333                             : en:00:15:57.333
00:19:47.958                             : en:00:19:47.958
00:28:51.250                             : en:00:28:51.250
00:34:15.667                             : en:00:34:15.667
00:43:11.000                             : en:00:43:11.000
00:49:04.125                             : en:00:49:04.125
00:56:05.667                             : en:00:56:05.667
01:00:42.542                             : en:01:00:42.542
01:05:03.667                             : en:01:05:03.667
01:09:07.458                             : en:01:09:07.458
01:14:51.208                             : en:01:14:51.208
01:20:33.375                             : en:01:20:33.375
01:25:51.667                             : en:01:25:51.667
01:30:10.292                             : en:01:30:10.292
01:35:31.333                             : en:01:35:31.333
01:42:54.625                             : en:01:42:54.625
01:54:06.292                             : en:01:54:06.292















:download:

Quote




File Leeched & Uploaded From




Don't walk as you are king, walk as you don't care who the king is....!!
Never argue with an idiot. They drag you down to their level and then beat you with experience?

Share this topic on FacebookShare this topic on GoogleShare this topic on MySpaceShare this topic on TwitterShare this topic on Yahoo

« Last Edit: January 02, 2019, 09:23:56 PM by Rάήνίјάч1234 »



Don't walk as you are king, walk as you don't care who the king is....!!

Thanks given by:


January 02, 2019, 09:49:24 PM
Reply #1
  • Devoted Member
  • **
  • Thank You: 40
  • Reputation: 13
  • Activity:
    1%
  • Country: us
  • Posts: 184
  • Topics: 47
  • Join Date: Aug 2012
  • ShareSpark Member

January 03, 2019, 09:37:28 AM
Reply #2
  • Royal Member
  • ****
  • Thank You: 1
  • Reputation: 5
  • Activity:
    9.4%
  • Country: in
  • Posts: 951
  • Topics: 0
  • Join Date: May 2012
  • ShareSpark Member

January 03, 2019, 04:59:09 PM
Reply #3
  • Senior Member
  • ***
  • Thank You: 4
  • Reputation: 1
  • Activity:
    27.2%
  • Country: pk
  • Posts: 291
  • Topics: 7
  • Join Date: Mar 2013
  • ShareSpark Member

January 03, 2019, 07:16:35 PM
Reply #4
  • Elite Member
  • ***
  • Thank You: 0
  • Reputation: 7
  • Activity:
    8%
  • Country: au
  • Posts: 409
  • Topics: 0
  • Join Date: Oct 2017
  • ShareSpark Member

Tags:
 

Related Topics





Back to top