+ ShareSpark.net »  :::: Dubbed Zone (Dubbed English in Hindi) » English Movies Dubbed in Hindi » High Resolution Movies
|- Life of Pi (2012) 1080p BluRay x264 Dual Audio [Hindi DD5.1 - English DD5.1] - MSUBS ~ Ranvijay


100% Bill Offer
  • Life of Pi (2012) 1080p BluRay x264 Dual Audio [Hindi DD5.1 - English DD5.1] - MSUBS ~ Ranvijay 5 1
Currently:  

Life of Pi (2012) 1080p BluRay x264 Dual Audio [Hindi DD5.1 - English DD5.1] - MSUBS ~ Ranvijay

0 Members and 1 Guest are viewing this topic.

January 02, 2019, 08:53:08 PM
  • Global Moderator
  • Legend Member
  • *****
  • Topic Author
  • Thank You: 11935
  • Reputation: 2432
  • Activity:
    100%
  • Country: in
  • Posts: 5649
  • Topics: 4628
  • Join Date: Jan 2014
  • ıllıllı ѕмoĸιng ιѕ good ғor нealтн ıllıllı :)






Life of PI (2012) 1080p BluRay x264 Dual Audio [Hindi DD5.1 - English DD5.1] - MSUBS ~ Ranvijay

Buy RDP Online




Quote

Format                                   : Matroska
Format version                           : Version 4 / Version 2
File size                                : 4.79 GiB
Duration                                 : 2 h 6 min
Overall bit rate                         : 5 402 kb/s
Movie name                               : Life of PI (2012) 1080p BluRay x264 Dual Audio [Hindi DD5.1 - English DD5.1] - MSUBS ~ Ranvijay

Video
ID                                       : 1
Format                                   : AVC
Format/Info                              : Advanced Video Codec
Duration                                 : 2 h 6 min
Bit rate                                 : 4 500 kb/s
Width                                    : 1 920 pixels
Height                                   : 1 080 pixels
Display aspect ratio                     : 16:9
Frame rate mode                          : Constant
Frame rate                               : 23.976 (24000/1001) FPS
Color space                              : YUV
Chroma subsampling                       : 4:2:0
Bit depth                                : 8 bits
Scan type                                : Progressive
Bits/(Pixel*Frame)                       : 0.091
Stream size                              : 3.99 GiB (83%)
Title                                    : ~Ranvijay~

Audio #1
ID                                       : 2
Format                                   : AC-3
Format/Info                              : Audio Coding 3
Codec ID                                 : A_AC3
Duration                                 : 2 h 6 min
Bit rate mode                            : Constant
Bit rate                                 : 448 kb/s
Channel(s)                               : 6 channels
Channel positions                        : Front: L C R, Side: L R, LFE
Sampling rate                            : 48.0 kHz
Frame rate                               : 31.250 FPS (1536 SPF)
Bit depth                                : 16 bits
Compression mode                         : Lossy
Stream size                              : 407 MiB (8%)
Title                                    : ~Ranvijay~
Language                                 : Hindi
Service kind                             : Complete Main
Default                                  : Yes
Forced                                   : Yes

Audio #2
ID                                       : 3
Format                                   : AC-3
Format/Info                              : Audio Coding 3
Codec ID                                 : A_AC3
Duration                                 : 2 h 6 min
Bit rate mode                            : Constant
Bit rate                                 : 448 kb/s
Channel(s)                               : 6 channels
Channel positions                        : Front: L C R, Side: L R, LFE
Sampling rate                            : 48.0 kHz
Frame rate                               : 31.250 FPS (1536 SPF)
Bit depth                                : 16 bits
Compression mode                         : Lossy
Stream size                              : 407 MiB (8%)
Title                                    : ~Ranvijay~
Language                                 : English
Service kind                             : Complete Main
Default                                  : No
Forced                                   : No

Text #1
ID                                       : 4
Format                                   : PGS
Muxing mode                              : zlib
Codec ID                                 : S_HDMV/PGS
Codec ID/Info                            : Picture based subtitle format used on BDs/HD-DVDs
Duration                                 : 1 h 58 min
Bit rate                                 : 27.4 kb/s
Count of elements                        : 2284
Stream size                              : 23.2 MiB (0%)
Title                                    : ~Ranvijay~
Language                                 : English
Default                                  : Yes
Forced                                   : Yes

Text #2
ID                                       : 5
Format                                   : PGS
Muxing mode                              : zlib
Codec ID                                 : S_HDMV/PGS
Codec ID/Info                            : Picture based subtitle format used on BDs/HD-DVDs
Duration                                 : 2 h 0 min
Bit rate                                 : 95 b/s
Count of elements                        : 14
Stream size                              : 84.3 KiB (0%)
Title                                    : ~Ranvijay~
Language                                 : Hindi
Default                                  : No
Forced                                   : No

Menu
00:00:00.000                             : en:00:00:00.000
00:03:58.822                             : en:00:03:58.822
00:11:13.172                             : en:00:11:13.172
00:15:24.924                             : en:00:15:24.924
00:21:29.622                             : en:00:21:29.622
00:25:44.543                             : en:00:25:44.543
00:29:46.827                             : en:00:29:46.827
00:31:31.014                             : en:00:31:31.014
00:35:34.299                             : en:00:35:34.299
00:45:24.347                             : en:00:45:24.347
00:50:21.894                             : en:00:50:21.894
00:54:13.333                             : en:00:54:13.333
00:57:18.352                             : en:00:57:18.352
01:00:07.395                             : en:01:00:07.395
01:04:12.057                             : en:01:04:12.057
01:09:32.085                             : en:01:09:32.085
01:11:48.054                             : en:01:11:48.054
01:13:34.285                             : en:01:13:34.285
01:16:47.561                             : en:01:16:47.561
01:21:31.178                             : en:01:21:31.178
01:23:10.027                             : en:01:23:10.027
01:26:30.852                             : en:01:26:30.852
01:31:21.434                             : en:01:31:21.434
01:34:13.857                             : en:01:34:13.857
01:43:42.675                             : en:01:43:42.675
01:47:38.661                             : en:01:47:38.661
01:55:20.080                             : en:01:55:20.080
01:59:16.274                             : en:01:59:16.274















:download:

Quote




File Leeched & Uploaded From




Don't walk as you are king, walk as you don't care who the king is....!!
Never argue with an idiot. They drag you down to their level and then beat you with experience?

Share this topic on FacebookShare this topic on GoogleShare this topic on MySpaceShare this topic on TwitterShare this topic on Yahoo

« Last Edit: January 02, 2019, 10:12:30 PM by Rάήνίјάч1234 »



Don't walk as you are king, walk as you don't care who the king is....!!

Thanks given by:


January 02, 2019, 09:58:31 PM
Reply #1
  • Senior Member
  • ***
  • Thank You: 0
  • Reputation: 3
  • Activity:
    19.8%
  • Country: us
  • Posts: 202
  • Topics: 1
  • Join Date: Oct 2017
  • ShareSpark Member

January 02, 2019, 10:13:06 PM
Reply #2
  • Global Moderator
  • Legend Member
  • *****
  • Topic Author
  • Thank You: 11935
  • Reputation: 2432
  • Activity:
    100%
  • Country: in
  • Posts: 5649
  • Topics: 4628
  • Join Date: Jan 2014
  • ıllıllı ѕмoĸιng ιѕ good ғor нealтн ıllıllı :)

January 02, 2019, 10:37:57 PM
Reply #3
  • Senior Member
  • ***
  • Thank You: 4
  • Reputation: 1
  • Activity:
    27.2%
  • Country: pk
  • Posts: 291
  • Topics: 7
  • Join Date: Mar 2013
  • ShareSpark Member

Tags:
 

Related Topics





Back to top