+ ShareSpark.net »  :::: Dubbed Zone (Dubbed English in Hindi) » English Movies Dubbed in Hindi » High Resolution Movies
|- Gravity (2013) 1080p[Dual Audio][ENG(5.1)-HINDI(5.1)]~{PHDR}~


HDFC 10% Off

Gravity (2013) 1080p[Dual Audio][ENG(5.1)-HINDI(5.1)]~{PHDR}~

0 Members and 1 Guest are viewing this topic.

January 01, 2019, 01:06:35 PM
Gravity (2013) 1080p[Dual Audio][ENG(5.1)-HINDI(5.1)]~{PHDR}~




Storyline

A medical engineer and an astronaut work together to survive after an accident leaves them adrift in space.

Cast

Sandra Bullock ... Ryan Stone
George Clooney ... Matt Kowalski
Ed Harris ... Mission Control (voice)
Orto Ignatiussen ... Aningaaq (voice)
Phaldut Sharma ... Shariff (voice)
Amy Warren ... Explorer Captain (voice)
Basher Savage ... Russian Space Station Captain (voice)


Genre
Drama | Sci-Fi | Thriller

Language
Hindi | English


Thanks Sandeep for MEGA link


General

Complete name : Gravity (2013) 1080p[Dual Audio][ENG(5.1)-HINDI(5.1)]~{PHDR}~
Format : Matroska
Format version : Version 4 / Version 2
File size : 3.27 GiB
Duration : 1h 30mn
Overall bit rate : 5 148 Kbps


Video
ID : 1
Format : AVC
Format/Info : Advanced Video Codec
Format profile : [email protected]
Format settings, CABAC : Yes
Format settings, ReFrames : 4 frames
Codec ID : V_MPEG4/ISO/AVC
Duration : 1h 30mn
Bit rate : 4 047 Kbps
Width : 1 920 pixels
Height : 800 pixels
Display aspect ratio : 2.40:1
Frame rate mode : Constant
Frame rate : 23.976 fps
Color space : YUV
Chroma subsampling : 4:2:0
Bit depth : 8 bits
Scan type : Progressive
Bits/(Pixel*Frame) : 0.110
Stream size : 2.52 GiB (77%)
Writing library : x264 core 133 r2334 a3ac64b
Default : Yes
Forced : No

Audio #1
ID : 2
Format : AC-3
Format/Info : Audio Coding 3
Mode extension : CM (complete main)
Format settings, Endianness : Big
Codec ID : A_AC3
Duration : 1h 30mn
Bit rate mode : Constant
Bit rate : 448 Kbps
Channel count : 6 channels
Channel positions : Front: L C R, Side: L R, LFE
Sampling rate : 48.0 KHz
Bit depth : 16 bits
Compression mode : Lossy
Stream size : 292 MiB (9%)
Title : Bluray~{PHDR}~
Language : Hindi
Default : Yes
Forced : No

Audio #2
ID : 3
Format : AC-3
Format/Info : Audio Coding 3
Mode extension : CM (complete main)
Format settings, Endianness : Big
Codec ID : A_AC3
Duration : 1h 30mn
Bit rate mode : Constant
Bit rate : 640 Kbps
Channel count : 6 channels
Channel positions : Front: L C R, Side: L R, LFE
Sampling rate : 48.0 KHz
Bit depth : 16 bits
Compression mode : Lossy
Stream size : 416 MiB (12%)
Title : Bluray
Language : English
Default : No
Forced : No

Text
ID : 4
Format : PGS
Muxing mode : zlib
Codec ID : S_HDMV/PGS
Codec ID/Info : The same subtitle format used on BDs/HD-DVDs
Title : Bluray SDH
Language : English
Default : Yes
Forced : No






NOTE :

1. SEEDING FROM HIGH SPEED SERVER, ENJOY MAX DOWNLOAD SPEED ;)
2. HINDI AUDIO SOURCE[OWN BLURAY]
3. ENjOY THe PERFECTION, FOR THOSE WHO LIKE PERFECTION
4. FOR MORE DETAILS AND UPCOMING U CAN CHECK MY FACEBOOK PAGE


FOOL'S BETTER STAY AWAY...!!!

Share this topic on FacebookShare this topic on GoogleShare this topic on MySpaceShare this topic on TwitterShare this topic on Yahoo



Thanks given by:


January 02, 2019, 06:25:06 PM
Reply #1
  • Senior Member
  • ***
  • Thank You: 4
  • Reputation: 1
  • Activity:
    27.2%
  • Country: pk
  • Posts: 291
  • Topics: 7
  • Join Date: Mar 2013
  • ShareSpark Member

Tags:
 

Related Topics

  Subject / Started by Replies Last post
5 Replies
1434 Views
Last post March 05, 2014, 05:03:52 AM
by PяiтαмzÐєиσ
2 Replies
1441 Views
Last post February 27, 2014, 11:56:56 AM
by manish_1234
0 Replies
863 Views
Last post March 04, 2014, 08:35:39 PM
by Ðj sαм
1 Replies
803 Views
Last post April 06, 2014, 11:08:19 PM
by janapritam007
5 Replies
2440 Views
Last post August 17, 2017, 03:08:58 AM
by TauqeerAlam




Back to top