+ ShareSpark.net »  :::: Dubbed Zone (Dubbed English in Hindi) » English Movies Dubbed in Hindi » High Resolution Movies
|- Blackhat (2015) 1080p BluRay x264 Dual Audio [Hindi DTS 5.1 - English DD5.1] - MSUBS ~ Ranvijay


Samsung Galaxy 8

Blackhat (2015) 1080p BluRay x264 Dual Audio [Hindi DTS 5.1 - English DD5.1] - MSUBS ~ Ranvijay

0 Members and 1 Guest are viewing this topic.

December 31, 2018, 10:31:46 PM
  • Global Moderator
  • Legend Member
  • *****
  • Topic Author
  • Thank You: 11935
  • Reputation: 2432
  • Activity:
    100%
  • Country: in
  • Posts: 5649
  • Topics: 4628
  • Join Date: Jan 2014
  • ıllıllı ѕмoĸιng ιѕ good ғor нealтн ıllıllı :)




Blackhat (2015) 1080p BluRay x264 Dual Audio [Hindi DTS 5.1 - English DD5.1] - MSUBS ~ Ranvijay


Quote
Format : Matroska
Format version : Version 4 / Version 2
File size : 4.86 GiB
Duration : 2 h 12 min
Overall bit rate : 5 230 kb/s
Movie name : Blackhat (2015) 1080p BluRay x264 Dual Audio [Hindi DTS 5.1 - English DD5.1] - MSUBS ~ Ranvijay

Video
ID : 1
Format : AVC
Format/Info : Advanced Video Codec
Duration : 2 h 12 min
Bit rate : 3 999 kb/s
Width : 1 920 pixels
Height : 800 pixels
Display aspect ratio : 2.40:1
Frame rate mode : Constant
Frame rate : 23.976 (24000/1001) FPS
Color space : YUV
Chroma subsampling : 4:2:0
Bit depth : 8 bits
Scan type : Progressive
Bits/(Pixel*Frame) : 0.109
Stream size : 3.71 GiB (76%)
Title : ~Ranvijay~

Audio #1
ID : 2
Format : DTS
Format/Info : Digital Theater Systems
Codec ID : A_DTS
Duration : 2 h 12 min
Bit rate mode : Constant
Bit rate : 768 kb/s
Channel(s) : 6 channels
Channel positions : Front: L C R, Side: L R, LFE
Sampling rate : 48.0 kHz
Frame rate : 93.750 FPS (512 SPF)
Bit depth : 24 bits
Compression mode : Lossy
Stream size : 730 MiB (15%)
Title : ~Ranvijay~
Language : Hindi
Default : Yes
Forced : Yes

Audio #2
ID : 3
Format : AC-3
Format/Info : Audio Coding 3
Codec ID : A_AC3
Duration : 2 h 12 min
Bit rate mode : Constant
Bit rate : 448 kb/s
Channel(s) : 6 channels
Channel positions : Front: L C R, Side: L R, LFE
Sampling rate : 48.0 kHz
Frame rate : 31.250 FPS (1536 SPF)
Bit depth : 16 bits
Compression mode : Lossy
Stream size : 426 MiB (9%)
Title : ~Ranvijay~
Language : English
Service kind : Complete Main
Default : No
Forced : No

Text #1
ID : 4
Format : PGS
Muxing mode : zlib
Codec ID : S_HDMV/PGS
Codec ID/Info : Picture based subtitle format used on BDs/HD-DVDs
Duration : 2 h 2 min
Bit rate : 26.9 kb/s
Count of elements : 2314
Stream size : 23.5 MiB (0%)
Title : ~Ranvijay~
Language : English
Default : No
Forced : No

Text #2
ID : 5
Format : PGS
Muxing mode : zlib
Codec ID : S_HDMV/PGS
Codec ID/Info : Picture based subtitle format used on BDs/HD-DVDs
Duration : 2 h 9 min
Bit rate : 19.0 kb/s
Count of elements : 2038
Stream size : 17.6 MiB (0%)
Title : ~Ranvijay~
Language : Hindi
Default : No
Forced : No

Menu
00:00:00.000 : en:00:00:00.000
00:06:14.457 : en:00:06:14.457
00:13:43.531 : en:00:13:43.531
00:20:22.930 : en:00:20:22.930
00:27:32.317 : en:00:27:32.317
00:32:58.894 : en:00:32:58.894
00:37:30.748 : en:00:37:30.748
00:44:59.655 : en:00:44:59.655
00:55:02.382 : en:00:55:02.382
01:00:20.992 : en:01:00:20.992
01:07:44.602 : en:01:07:44.602
01:13:24.025 : en:01:13:24.025
01:20:48.010 : en:01:20:48.010
01:26:24.262 : en:01:26:24.262
01:33:39.572 : en:01:33:39.572
01:38:36.869 : en:01:38:36.869
01:43:50.391 : en:01:43:50.391
01:47:19.433 : en:01:47:19.433
01:54:33.241 : en:01:54:33.241
02:04:19.494 : en:02:04:19.494







:download:

Quote



File Leeched & Uploaded From




Don't walk as you are king, walk as you don't care who the king is....!!
Never argue with an idiot. They drag you down to their level and then beat you with experience?

Share this topic on FacebookShare this topic on GoogleShare this topic on MySpaceShare this topic on TwitterShare this topic on Yahoo




Don't walk as you are king, walk as you don't care who the king is....!!

Thanks given by:


January 12, 2019, 11:05:47 AM
Reply #1
  • Royal Member
  • ****
  • Thank You: 1
  • Reputation: 5
  • Activity:
    9.4%
  • Country: in
  • Posts: 951
  • Topics: 0
  • Join Date: May 2012
  • ShareSpark Member

Tags:
 

Related Topics





Back to top