+ ShareSpark.net »  :::: Dubbed Zone (Dubbed English in Hindi) » English Movies Dubbed in Hindi » High Resolution Movies
|- Unbroken (2014) 1080p BluRay x264 Dual Audio [Hindi DD5.1 - English DD5.1] - MSUBS ~ Ranvijay


TV and Appliances

Unbroken (2014) 1080p BluRay x264 Dual Audio [Hindi DD5.1 - English DD5.1] - MSUBS ~ Ranvijay

0 Members and 1 Guest are viewing this topic.

December 31, 2018, 10:07:22 PM
  • Global Moderator
  • Legend Member
  • *****
  • Topic Author
  • Thank You: 11935
  • Reputation: 2432
  • Activity:
    100%
  • Country: in
  • Posts: 5649
  • Topics: 4628
  • Join Date: Jan 2014
  • ıllıllı ѕмoĸιng ιѕ good ғor нealтн ıllıllı :)






Unbroken (2014) 1080p BluRay x264 Dual Audio [Hindi DD5.1 - English DD5.1] - MSUBS ~ Ranvijay

Buy RDP Online




Quote

Format                                   : Matroska
Format version                           : Version 4 / Version 2
File size                                : 4.71 GiB
Duration                                 : 2 h 17 min
Overall bit rate                         : 4 909 kb/s
Movie name                               : Unbroken (2014) 1080p BluRay x264 Dual Audio [Hindi DD5.1 - English DD5.1] - MSUBS ~ Ranvijay

Video
ID                                       : 1
Format                                   : AVC
Format/Info                              : Advanced Video Codec
Duration                                 : 2 h 17 min
Bit rate                                 : 4 000 kb/s
Width                                    : 1 920 pixels
Height                                   : 800 pixels
Display aspect ratio                     : 2.40:1
Frame rate mode                          : Constant
Frame rate                               : 23.976 (24000/1001) FPS
Color space                              : YUV
Chroma subsampling                       : 4:2:0
Bit depth                                : 8 bits
Scan type                                : Progressive
Bits/(Pixel*Frame)                       : 0.109
Stream size                              : 3.84 GiB (81%)
Title                                    : ~Ranvijay~

Audio #1
ID                                       : 2
Format                                   : AC-3
Format/Info                              : Audio Coding 3
Codec ID                                 : A_AC3
Duration                                 : 2 h 17 min
Bit rate mode                            : Constant
Bit rate                                 : 448 kb/s
Channel(s)                               : 6 channels
Channel positions                        : Front: L C R, Side: L R, LFE
Sampling rate                            : 48.0 kHz
Frame rate                               : 31.250 FPS (1536 SPF)
Bit depth                                : 16 bits
Compression mode                         : Lossy
Stream size                              : 440 MiB (9%)
Title                                    : ~Ranvijay~
Language                                 : Hindi
Service kind                             : Complete Main
Default                                  : Yes
Forced                                   : Yes

Audio #2
ID                                       : 3
Format                                   : AC-3
Format/Info                              : Audio Coding 3
Codec ID                                 : A_AC3
Duration                                 : 2 h 17 min
Bit rate mode                            : Constant
Bit rate                                 : 448 kb/s
Channel(s)                               : 6 channels
Channel positions                        : Front: L C R, Side: L R, LFE
Sampling rate                            : 48.0 kHz
Frame rate                               : 31.250 FPS (1536 SPF)
Bit depth                                : 16 bits
Compression mode                         : Lossy
Stream size                              : 440 MiB (9%)
Title                                    : ~Ranvijay~
Language                                 : English
Service kind                             : Complete Main
Default                                  : No
Forced                                   : No

Text #1
ID                                       : 4
Format                                   : PGS
Muxing mode                              : zlib
Codec ID                                 : S_HDMV/PGS
Codec ID/Info                            : Picture based subtitle format used on BDs/HD-DVDs
Duration                                 : 2 h 10 min
Bit rate                                 : 19.8 kb/s
Count of elements                        : 2170
Stream size                              : 18.5 MiB (0%)
Title                                    : ~Ranvijay~
Language                                 : English
Default                                  : Yes
Forced                                   : Yes

Text #2
ID                                       : 5
Format                                   : PGS
Muxing mode                              : zlib
Codec ID                                 : S_HDMV/PGS
Codec ID/Info                            : Picture based subtitle format used on BDs/HD-DVDs
Duration                                 : 2 h 16 min
Bit rate                                 : 11.0 kb/s
Count of elements                        : 1704
Stream size                              : 10.7 MiB (0%)
Title                                    : ~Ranvijay~
Language                                 : Hindi
Default                                  : No
Forced                                   : No

Menu
00:00:00.000                             : en:00:00:00.000
00:08:21.042                             : en:00:08:21.042
00:13:23.803                             : en:00:13:23.803
00:20:05.371                             : en:00:20:05.371
00:27:16.969                             : en:00:27:16.969
00:31:41.066                             : en:00:31:41.066
00:37:22.657                             : en:00:37:22.657
00:44:47.143                             : en:00:44:47.143
00:49:56.952                             : en:00:49:56.952
00:59:48.585                             : en:00:59:48.585
01:10:16.295                             : en:01:10:16.295
01:17:03.911                             : en:01:17:03.911
01:21:50.989                             : en:01:21:50.989
01:28:27.677                             : en:01:28:27.677
01:32:41.514                             : en:01:32:41.514
01:38:30.446                             : en:01:38:30.446
01:44:09.994                             : en:01:44:09.994
01:53:10.617                             : en:01:53:10.617
02:01:39.167                             : en:02:01:39.167
02:11:38.349                             : en:02:11:38.349














:download:

Quote




File Leeched & Uploaded From




Don't walk as you are king, walk as you don't care who the king is....!!
Never argue with an idiot. They drag you down to their level and then beat you with experience?

Share this topic on FacebookShare this topic on GoogleShare this topic on MySpaceShare this topic on TwitterShare this topic on Yahoo




Don't walk as you are king, walk as you don't care who the king is....!!

Thanks given by:


January 01, 2019, 12:53:22 AM
Reply #1
  • Conqueror
  • Elite Forces
  • *****
  • Thank You: 493
  • Reputation: 185
  • Activity:
    5.8%
  • Country: in
  • Posts: 1140
  • Topics: 490
  • Join Date: Oct 2015
  • Hit ThanX Button 🔳 N Repute Button 🔳
Awesome Movie Must Watchable, True Story Movie :yu:Thnx for Share  :rep:
Hit Thnx Button 🔳 N + Repute Button 🔳 Always Appreciate UploadeR 🤗 GiVe Respect GeT Respect :yu:

January 01, 2019, 09:00:30 AM
Reply #2
  • Elite Forces
  • ****
  • Thank You: 118
  • Reputation: 78
  • Activity:
    3.4%
  • Country: pk
  • Posts: 1161
  • Topics: 326
  • Join Date: Sep 2012
  • ShareSpark Member

January 01, 2019, 01:57:08 PM
Reply #3
  • Senior Member
  • ***
  • Thank You: 4
  • Reputation: 1
  • Activity:
    27.2%
  • Country: pk
  • Posts: 291
  • Topics: 7
  • Join Date: Mar 2013
  • ShareSpark Member
great buddy...
and really appreciate your contribution..
thanks for gdrive and acefile links...what else do i need..!
 :thank: :rep:

January 02, 2019, 08:15:21 PM
Reply #4
  • Hero Member
  • ***
  • Thank You: 21
  • Reputation: 1
  • Activity:
    0.4%
  • Posts: 319
  • Topics: 57
  • Join Date: Jan 2013
  • ShareSpark Member

January 03, 2019, 11:28:26 AM
Reply #5
  • Royal Member
  • ****
  • Thank You: 1
  • Reputation: 5
  • Activity:
    9.4%
  • Country: in
  • Posts: 951
  • Topics: 0
  • Join Date: May 2012
  • ShareSpark Member

Tags:
 

Related Topics





Back to top