+ ShareSpark.net »  :::: Dubbed Zone (Dubbed English in Hindi) » English Movies Dubbed in Hindi » High Resolution Movies
|- Kong Skull Island (2017) 1080p BluRay x264 Dual Audio [Hindi DD5.1 640 Kbps - English DD5.1] - MSUBS


Amazon Pantry Offer

Kong Skull Island (2017) 1080p BluRay x264 Dual Audio [Hindi DD5.1 640 Kbps - English DD5.1] - MSUBS

0 Members and 1 Guest are viewing this topic.

December 26, 2018, 01:36:00 PM
  • Global Moderator
  • Legend Member
  • *****
  • Topic Author
  • Thank You: 11935
  • Reputation: 2432
  • Activity:
    100%
  • Country: in
  • Posts: 5649
  • Topics: 4628
  • Join Date: Jan 2014
  • ıllıllı ѕмoĸιng ιѕ good ғor нealтн ıllıllı :)






Kong Skull Island (2017) 1080p BluRay x264 Dual Audio [Hindi DD5.1 640 Kbps - English DD5.1] - MSUBS ~ Ranvijay


Thanks To Hammer For Hindi Audio

Buy RDP Online



Quote

Format                                   : Matroska
Format version                           : Version 4 / Version 2
File size                                : 4.63 GiB
Duration                                 : 1 h 58 min
Overall bit rate                         : 5 601 kb/s
Movie name                               : Kong Skull Island (2017) 1080p BluRay x264 Dual Audio [Hindi DD5.1 640 Kbps - English DD5.1] - MSUBS ~ Ranvijay

Video
ID                                       : 1
Format                                   : AVC
Format/Info                              : Advanced Video Codec
Duration                                 : 1 h 58 min
Bit rate                                 : 4 500 kb/s
Width                                    : 1 920 pixels
Height                                   : 800 pixels
Display aspect ratio                     : 2.40:1
Frame rate mode                          : Constant
Frame rate                               : 23.976 (24000/1001) FPS
Color space                              : YUV
Chroma subsampling                       : 4:2:0
Bit depth                                : 8 bits
Scan type                                : Progressive
Bits/(Pixel*Frame)                       : 0.122
Stream size                              : 3.72 GiB (80%)
Title                                    : ~Ranvijay~

Audio #1
ID                                       : 2
Format                                   : AC-3
Format/Info                              : Audio Coding 3
Codec ID                                 : A_AC3
Duration                                 : 1 h 58 min
Bit rate mode                            : Constant
Bit rate                                 : 640 kb/s
Channel(s)                               : 6 channels
Channel positions                        : Front: L C R, Side: L R, LFE
Sampling rate                            : 48.0 kHz
Frame rate                               : 31.250 FPS (1536 SPF)
Bit depth                                : 16 bits
Compression mode                         : Lossy
Delay relative to video                  : 982 ms
Stream size                              : 542 MiB (11%)
Title                                    : ~Ranvijay~
Language                                 : Hindi
Service kind                             : Complete Main
Default                                  : Yes
Forced                                   : Yes

Audio #2
ID                                       : 3
Format                                   : AC-3
Format/Info                              : Audio Coding 3
Codec ID                                 : A_AC3
Duration                                 : 1 h 58 min
Bit rate mode                            : Constant
Bit rate                                 : 448 kb/s
Channel(s)                               : 6 channels
Channel positions                        : Front: L C R, Side: L R, LFE
Sampling rate                            : 48.0 kHz
Frame rate                               : 31.250 FPS (1536 SPF)
Bit depth                                : 16 bits
Compression mode                         : Lossy
Stream size                              : 379 MiB (8%)
Title                                    : ~Ranvijay~
Language                                 : English
Service kind                             : Complete Main
Default                                  : No
Forced                                   : No

Text #1
ID                                       : 4
Format                                   : PGS
Muxing mode                              : zlib
Codec ID                                 : S_HDMV/PGS
Codec ID/Info                            : Picture based subtitle format used on BDs/HD-DVDs
Duration                                 : 1 h 58 min
Bit rate                                 : 33.3 kb/s
Count of elements                        : 3060
Stream size                              : 28.2 MiB (1%)
Title                                    : ~Ranvijay~
Language                                 : English
Default                                  : Yes
Forced                                   : Yes

Text #2
ID                                       : 5
Format                                   : PGS
Muxing mode                              : zlib
Codec ID                                 : S_HDMV/PGS
Codec ID/Info                            : Picture based subtitle format used on BDs/HD-DVDs
Duration                                 : 1 h 54 min
Bit rate                                 : 588 b/s
Count of elements                        : 58
Stream size                              : 496 KiB (0%)
Title                                    : ~Ranvijay~
Language                                 : Hindi
Default                                  : No
Forced                                   : No

Menu
00:00:00.000                             : en:Chapter 1
00:08:54.742                             : en:Chapter 2
00:19:51.773                             : en:Chapter 3
00:30:01.132                             : en:Chapter 4
00:40:00.106                             : en:Chapter 5
00:50:13.260                             : en:Chapter 6
01:00:49.729                             : en:Chapter 7
01:10:29.600                             : en:Chapter 8
01:18:05.889                             : en:Chapter 9
01:30:12.657                             : en:Chapter 10
01:39:09.026                             : en:Chapter 11
01:47:05.836                             : en:Chapter 12













:download:

Quote




File Leeched & Uploaded From




Don't walk as you are king, walk as you don't care who the king is....!!
Never argue with an idiot. They drag you down to their level and then beat you with experience?

Share this topic on FacebookShare this topic on GoogleShare this topic on MySpaceShare this topic on TwitterShare this topic on Yahoo




Don't walk as you are king, walk as you don't care who the king is....!!

Thanks given by:


December 27, 2018, 11:05:12 AM
Reply #1
  • Royal Member
  • ****
  • Thank You: 1
  • Reputation: 5
  • Activity:
    9.4%
  • Country: in
  • Posts: 951
  • Topics: 0
  • Join Date: May 2012
  • ShareSpark Member

Tags:
 

Related Topics





Back to top