+ ShareSpark.net »  :::: Bollywood Zone » Bollywood Movies (Pre Releases)
|- Muskaan (2004) 540p AMZN WEB-DL DDP 2.0 ESub - DTOne


10% SBI and 10% Discount

Muskaan (2004) 540p AMZN WEB-DL DDP 2.0 ESub - DTOne

0 Members and 1 Guest are viewing this topic.

December 26, 2018, 12:36:25 PM
  • ***************
  • Conqueror
  • Legend Member
  • *****
  • Topic Author
  • Thank You: 1969
  • Reputation: 566
  • Activity:
    100%
  • Country: pk
  • Posts: 2197
  • Topics: 1475
  • Join Date: Mar 2015
  • =$ Success Never Ends $=
Muskaan (2004) 540p AMZN WEB-DL DDP 2.0 ESub - DTOne








Quote

General
Complete name : Muskaan (2004) 540p AMZN WEB-DL DDP 2.0 ESub - DTOne.mkv
Format : Matroska
Format version : Version 4 / Version 2
File size : 1.88 GiB
Duration : 2 h 1 min
Overall bit rate mode : Variable
Overall bit rate : 2 210 kb/s
Encoded date : UTC 2018-12-25 06:50:01
Writing application : mkvmerge v28.2.0 ('The Awakening') 64-bit
Writing library : libebml v1.3.6 + libmatroska v1.4.9

Video
ID : 1
Format : AVC
Format/Info : Advanced Video Codec
Format profile : [email protected]
Format settings : CABAC / 5 Ref Frames
Format settings, CABAC : Yes
Format settings, RefFrames : 5 frames
Codec ID : V_MPEG4/ISO/AVC
Duration : 2 h 1 min
Bit rate mode : Variable
Bit rate : 1 984 kb/s
Maximum bit rate : 2 995 kb/s
Width : 960 pixels
Height : 540 pixels
Display aspect ratio : 16:9
Frame rate mode : Constant
Frame rate : 25.000 FPS
Color space : YUV
Chroma subsampling : 4:2:0
Bit depth : 8 bits
Scan type : Progressive
Bits/(Pixel*Frame) : 0.153
Stream size : 1.69 GiB (90%)
Default : Yes
Forced : No
Color range : Limited
Color primaries : BT.709
Transfer characteristics : BT.709
Matrix coefficients : BT.709

Audio
ID : 2
Format : E-AC-3
Format/Info : Enhanced Audio Coding 3
Codec ID : A_EAC3
Duration : 2 h 1 min
Bit rate mode : Constant
Bit rate : 224 kb/s
Channel(s) : 2 channels
Channel positions : Front: L R
Sampling rate : 48.0 kHz
Frame rate : 187.500 FPS (256 SPF)
Compression mode : Lossy
Stream size : 195 MiB (10%)
Title : Hindi
Language : Hindi
Service kind : Complete Main
Default : Yes
Forced : No

Text
ID : 3
Format : UTF-8
Codec ID : S_TEXT/UTF8
Codec ID/Info : UTF-8 Plain Text
Duration : 1 h 59 min
Bit rate : 49 b/s
Count of elements : 1080
Stream size : 43.0 KiB (0%)
Title : English [Full]
Language : English
Default : Yes
Forced : No



 :ss:













 :download:






Share this topic on FacebookShare this topic on GoogleShare this topic on MySpaceShare this topic on TwitterShare this topic on Yahoo



Thanks given by:


Tags:
 

Related Topics

  Subject / Started by Replies Last post
0 Replies
488 Views
Last post February 26, 2015, 10:25:38 PM
by ★★♫♪αgєит 47© ♥♫★★
0 Replies
280 Views
Last post October 11, 2018, 09:25:00 PM
by Special26
2 Replies
342 Views
Last post December 25, 2018, 04:54:51 AM
by shanabha
0 Replies
126 Views
Last post December 24, 2018, 06:08:14 PM
by Special26
0 Replies
164 Views
Last post December 24, 2018, 06:38:25 PM
by Special26




Back to top