+ ShareSpark.net »  :::: Dubbed Zone (Dubbed English in Hindi) » English Movies Dubbed in Hindi » High Resolution Movies
|- IT (2017) 1080p BluRay x264 Dual Audio [Hindi DD5.1 640 Kbps - English DD5.1] - ESUB ~ Ranvijay


Amazon Pantry Offer

IT (2017) 1080p BluRay x264 Dual Audio [Hindi DD5.1 640 Kbps - English DD5.1] - ESUB ~ Ranvijay

0 Members and 1 Guest are viewing this topic.

December 25, 2018, 03:20:56 PM
  • Global Moderator
  • Legend Member
  • *****
  • Topic Author
  • Thank You: 11935
  • Reputation: 2432
  • Activity:
    100%
  • Country: in
  • Posts: 5649
  • Topics: 4628
  • Join Date: Jan 2014
  • ıllıllı ѕмoĸιng ιѕ good ғor нealтн ıllıllı :)






IT (2017) 1080p BluRay x264 Dual Audio [Hindi DD5.1 640 Kbps - English DD5.1] - ESUB ~ Ranvijay

Thanks To Hammer For Hindi Audio

Buy RDP Online




Quote

Format                                   : Matroska
Format version                           : Version 4 / Version 2
File size                                : 4.80 GiB
Duration                                 : 2 h 14 min
Overall bit rate                         : 5 100 kb/s
Movie name                               : IT (2017) 1080p BluRay x264 Dual Audio [Hindi DD5.1 640 Kbps - English DD5.1] - ESUB ~ Ranvijay

Video
ID                                       : 1
Format                                   : AVC
Format/Info                              : Advanced Video Codec
Duration                                 : 2 h 14 min
Bit rate                                 : 4 000 kb/s
Width                                    : 1 920 pixels
Height                                   : 800 pixels
Display aspect ratio                     : 2.40:1
Frame rate mode                          : Constant
Frame rate                               : 23.976 (24000/1001) FPS
Color space                              : YUV
Chroma subsampling                       : 4:2:0
Bit depth                                : 8 bits
Scan type                                : Progressive
Bits/(Pixel*Frame)                       : 0.109
Stream size                              : 3.76 GiB (78%)
Title                                    : ~Ranvijay~

Audio #1
ID                                       : 2
Format                                   : AC-3
Format/Info                              : Audio Coding 3
Codec ID                                 : A_AC3
Duration                                 : 2 h 14 min
Bit rate mode                            : Constant
Bit rate                                 : 640 kb/s
Channel(s)                               : 6 channels
Channel positions                        : Front: L C R, Side: L R, LFE
Sampling rate                            : 48.0 kHz
Frame rate                               : 31.250 FPS (1536 SPF)
Bit depth                                : 16 bits
Compression mode                         : Lossy
Delay relative to video                  : 1 s 130 ms
Stream size                              : 616 MiB (13%)
Title                                    : ~Ranvijay~
Language                                 : Hindi
Service kind                             : Complete Main
Default                                  : Yes
Forced                                   : Yes

Audio #2
ID                                       : 3
Format                                   : AC-3
Format/Info                              : Audio Coding 3
Codec ID                                 : A_AC3
Duration                                 : 2 h 14 min
Bit rate mode                            : Constant
Bit rate                                 : 448 kb/s
Channel(s)                               : 6 channels
Channel positions                        : Front: L C R, Side: L R, LFE
Sampling rate                            : 48.0 kHz
Frame rate                               : 31.250 FPS (1536 SPF)
Bit depth                                : 16 bits
Compression mode                         : Lossy
Stream size                              : 432 MiB (9%)
Title                                    : ~Ranvijay~
Language                                 : English
Service kind                             : Complete Main
Default                                  : No
Forced                                   : No

Text
ID                                       : 4
Format                                   : PGS
Muxing mode                              : zlib
Codec ID                                 : S_HDMV/PGS
Codec ID/Info                            : Picture based subtitle format used on BDs/HD-DVDs
Duration                                 : 2 h 14 min
Bit rate                                 : 31.9 kb/s
Count of elements                        : 3677
Stream size                              : 30.7 MiB (1%)
Title                                    : ~Ranvijay~
Language                                 : English
Default                                  : Yes
Forced                                   : Yes

Menu
00:00:00.000                             : en:00:00:00.000
00:09:23.646                             : en:00:09:23.646
00:18:31.861                             : en:00:18:31.861
00:28:26.163                             : en:00:28:26.163
00:38:36.981                             : en:00:38:36.981
00:48:19.438                             : en:00:48:19.438
00:59:30.776                             : en:00:59:30.776
01:08:52.795                             : en:01:08:52.795
01:16:58.823                             : en:01:16:58.823
01:26:52.958                             : en:01:26:52.958
01:38:15.306                             : en:01:38:15.306
01:48:40.973                             : en:01:48:40.973
02:04:07.899                             : en:02:04:07.899
02:09:05.655                             : en:02:09:05.655














:download:

Quote




File Leeched & Uploaded From




Don't walk as you are king, walk as you don't care who the king is....!!
Never argue with an idiot. They drag you down to their level and then beat you with experience?

Share this topic on FacebookShare this topic on GoogleShare this topic on MySpaceShare this topic on TwitterShare this topic on Yahoo

« Last Edit: December 25, 2018, 03:24:06 PM by Rάήνίјάч1234 »



Don't walk as you are king, walk as you don't care who the king is....!!

Thanks given by:


December 26, 2018, 11:44:32 AM
Reply #1
  • Royal Member
  • ****
  • Thank You: 1
  • Reputation: 5
  • Activity:
    9.4%
  • Country: in
  • Posts: 951
  • Topics: 0
  • Join Date: May 2012
  • ShareSpark Member

Tags:
 

Related Topics





Back to top