+ ShareSpark.net »  :::: Dubbed Zone (Dubbed English in Hindi) » English Movies Dubbed in Hindi » High Resolution Movies
|- Alien Covenant (2017) BluRay 1080p x264 Multi [Hin-Tam-Tel] DD 5.1 [Eng] DTS 5.1-Hon3y - 8.44 GB


10% SBI and 10% Discount

Alien Covenant (2017) BluRay 1080p x264 Multi [Hin-Tam-Tel] DD 5.1 [Eng] DTS 5.1-Hon3y - 8.44 GB

0 Members and 1 Guest are viewing this topic.

September 01, 2017, 06:53:25 PM
  • Global Moderator
  • Legend Member
  • *****
  • Topic Author
  • Thank You: 11935
  • Reputation: 2432
  • Activity:
    100%
  • Country: in
  • Posts: 5649
  • Topics: 4628
  • Join Date: Jan 2014
  • ıllıllı ѕмoĸιng ιѕ good ғor нealтн ıllıllı :)
Alien Covenant (2017) BluRay 1080p x264 Multi [Hin-Tam-Tel] DD 5.1 [Eng] DTS 5.1-Hon3y - 8.44 GB



:info:

Quote
Format                      : Matroska
Format version              : Version 4 / Version 2
File size                   : 8.44 GiB
Duration                    : 2 h 2 min
Overall bit rate            : 9 896 kb/s
Movie name                  : Alien [email protected]


Video
ID                          : 1
Format                      : AVC
Format/Info                 : Advanced Video Codec
Format profile              : [email protected]
Format settings, CABAC      : Yes
Format settings, ReFrames   : 5 frames
Codec ID                    : V_MPEG4/ISO/AVC
Duration                    : 2 h 2 min
Bit rate                    : 7 000 kb/s
Width                       : 1 920 pixels
Height                      : 800 pixels
Display aspect ratio        : 2.40:1
Frame rate mode             : Constant
Frame rate                  : 23.976 (24000/1001) FPS


Thanks- Rohit bro for audio :)

Audio #1
ID                          : 2
Format                      : AC-3
Format/Info                 : Audio Coding 3
Format settings, Endianness : Big
Codec ID                    : A_AC3
Duration                    : 2 h 2 min
Bit rate mode               : Constant
Bit rate                    : 448 kb/s
Channel(s)                  : 6 channels
Channel positions           : Front: L C R, Side: L R, LFE
Sampling rate               : 48.0 kHz
Frame rate                  : 31.250 FPS (1536 spf)
Bit depth                   : 16 bits
Compression mode            : Lossy
Stream size                 : 391 MiB (5%)
Title                       : [email protected]
Language                    : Hindi
Service kind                : Complete Main
Default                     : Yes
Forced                      : Yes

Audio #2
ID                          : 3
Format                      : AC-3
Format/Info                 : Audio Coding 3
Format settings, Endianness : Big
Codec ID                    : A_AC3
Duration                    : 2 h 2 min
Bit rate mode               : Constant
Bit rate                    : 448 kb/s
Channel(s)                  : 6 channels
Channel positions           : Front: L C R, Side: L R, LFE
Sampling rate               : 48.0 kHz
Frame rate                  : 31.250 FPS (1536 spf)
Bit depth                   : 16 bits
Compression mode            : Lossy
Stream size                 : 391 MiB (5%)
Title                       : [email protected]
Language                    : Tamil
Service kind                : Complete Main
Default                     : No
Forced                      : No

Audio #3
ID                          : 4
Format                      : AC-3
Format/Info                 : Audio Coding 3
Format settings, Endianness : Big
Codec ID                    : A_AC3
Duration                    : 2 h 2 min
Bit rate mode               : Constant
Bit rate                    : 448 kb/s
Channel(s)                  : 6 channels
Channel positions           : Front: L C R, Side: L R, LFE
Sampling rate               : 48.0 kHz
Frame rate                  : 31.250 FPS (1536 spf)
Bit depth                   : 16 bits
Compression mode            : Lossy
Stream size                 : 391 MiB (5%)
Title                       : [email protected]
Language                    : Telugu
Service kind                : Complete Main
Default                     : No
Forced                      : No

Audio #4
ID                          : 5
Format                      : DTS
Format/Info                 : Digital Theater Systems
Format profile              : ES Matrix / Core
Mode                        : 16
Format settings, Endianness : Big
Codec ID                    : A_DTS
Duration                    : 2 h 2 min
Bit rate mode               : Constant
Bit rate                    : 1 509 kb/s
Channel(s)                  : 7 channels / 6 channels
Channel positions           : Front: L C R, Side: L R, Back: C, LFE / Front: L C R, Side: L R, LFE
Sampling rate               : 48.0 kHz
Frame rate                  : 93.750 FPS (512 spf)
Bit depth                   : 24 bits
Compression mode            : Lossy
Stream size                 : 1.29 GiB (15%)
Title                       : English [email protected]
Language                    : English
Default                     : No
Forced                      : No

Subtitle - Eng Normal+ SDH+Hindi

Chapter - yes

:ss:









:download:

Quote




File Leeched & Uploaded From




Don't walk as you are king, walk as you don't care who the king is....!!
Never argue with an idiot. They drag you down to their level and then beat you with experience?

Share this topic on FacebookShare this topic on GoogleShare this topic on MySpaceShare this topic on TwitterShare this topic on Yahoo




Don't walk as you are king, walk as you don't care who the king is....!!

Thanks given by:


September 26, 2017, 05:49:13 PM
Reply #1
  • Devoted Member
  • **
  • Thank You: 5
  • Reputation: 2
  • Activity:
    0.2%
  • Country: in
  • Posts: 153
  • Topics: 42
  • Join Date: Jan 2013
  • ShareSpark Member
please upload the movie ..in same or higher size....all  links  are dead....

December 28, 2018, 04:02:42 PM
Reply #2
  • Senior Member
  • ***
  • Thank You: 4
  • Reputation: 1
  • Activity:
    27.2%
  • Country: pk
  • Posts: 291
  • Topics: 7
  • Join Date: Mar 2013
  • ShareSpark Member
@Rάήνίјάч1234

bro all links are dead, can you please re-upload to acefile??

thanks in advanced.

Tags:
 

Related Topics





Back to top